TimeScapes 4K (2012) Ultra HD 2160p REMUX

TimeScapes 4K (2012) Ultra HD 2160p REMUX
BDRemux 4K 2160P
Сountry: New Zealand
Genre: Documentary
Language: English
Cast: Tom Lowe
0
Rating
0

TimeScapes is the debut film from award-winning cinematographer and director Tom Lowe. The film features stunning slow-motion and timelapse cinematography of the landscapes, people, and wildlife of thw USA's South West. Lowe spent 2 years roaming the Southwest in his Toyota pickup truck shooting the film, which was shot in 5K resolution on Red Epic and Canon DLSR cameras, edited in 4K in Adobe Premiere and After Effects, and graded at 16-bit 4K at Light Iron Hollywood on a Quantel Pablo system, by colorist Ian Vertovec.

TimeScapes 4K (2012) Ultra HD 2160p REMUX Review
TimeScapes is the debut film from award-winning cinematographer and director Tom Lowe. The non-narrative film features stunning slow-motion and timelapse cinematography of the landscapes, people, and wildlife of the American South West.

There are movies and there is cinematography. First of both are made to entertain while the second is pure art. "Timescapes" surely belongs to the latter.

Until now there were two motion pictures of such a breathtaking visual power - Baraka and Home by Yann Arthus-Bertrand. While Baraka has the most complex story and Home delivers an ecological message, Timescapes now completes this trilogy being the artistic one of that bunch.

It's right, there is no clear story behind and the scenes seem to be some kind randomly cut but this does not really matter as each of them is a masterpiece of its own. It can be compared to an exhibition of pictures, all of them show the workmanship of a great master while each is independent and not an element of a series.

Time lapse photography is an artistic expression and it is pure joy to watch it put on a screen in brilliant perfection. However do not get lost in wrong expectations, TimeScapes has not been filmed to be an entertaining blockbuster, instead it wants to show you the beauty of motion pictures - either in slow-mo or time compressed views.

So if you liked Baraka or Home you will most likely also enjoy this work. From the technical point of view there is nothing to complain about, the BluRay version is of high quality, detail sharpness is outstanding and the soundtrack fits very well to the pictures.

It is my humble opinion that motion pictures like these are important, to set a contrast to all those movies made for commerce in order to entertain the crowd. It is a fascinating expression of art and for anyone interested in cinematographic art a must see - possibly one of the best works of 2012.

Video
ID : 1
Format : HEVC
Format/Info : High Efficiency Video Coding
Format profile : Main 10@L5.1@High
Codec ID : V_MPEGH/ISO/HEVC
Duration : 48 min 21 s
Bit rate : 60.0 Mb/s
Width : 3 840 pixels
Height : 2 160 pixels
Display aspect ratio : 16:9
Frame rate mode : Constant
Frame rate : 23.976 (24000/1001) FPS
Original frame rate : 23.976 (23976/1000) FPS
Standard : Component
Color space : YUV
Chroma subsampling : 4:2:0
Bit depth : 10 bits
Bits/(Pixel*Frame) : 0.302
Stream size : 20.3 GiB (93%)
Title : TimeScapes.2012.DOCU.2160p.BluRay.REMUX.HEVC.DTS-HD.MA.2.0
Default : Yes
Forced : No
Color range : Limited
Color primaries : BT.709
Transfer characteristics : BT.709
Matrix coefficients : BT.709

Audio #1
ID : 2
Format : DTS
Format/Info : Digital Theater Systems
Format profile : MA / Core
Codec ID : A_DTS
Duration : 48 min 21 s
Bit rate mode : Variable / Constant
Bit rate : 1 152 kb/s / 960 kb/s
Channel(s) : 2 channels
Channel positions : Front: L R
Sampling rate : 48.0 kHz
Frame rate : 93.750 FPS (512 SPF)
Bit depth : 16 bits
Compression mode : Lossless / Lossy
Stream size : 398 MiB (2%)
Title : TimeScapes.2012.DOCU.2160p.BluRay.REMUX.HEVC.DTS-HD.MA.2.0
Language : English
Default : Yes
Forced : No

Audio #2
ID : 3
Format : DTS
Format/Info : Digital Theater Systems
Format profile : MA / Core
Codec ID : A_DTS
Duration : 48 min 21 s
Bit rate mode : Variable / Constant
Bit rate : 1 119 kb/s / 960 kb/s
Channel(s) : 2 channels
Channel positions : Front: L R
Sampling rate : 48.0 kHz
Frame rate : 93.750 FPS (512 SPF)
Bit depth : 16 bits
Compression mode : Lossless / Lossy
Stream size : 387 MiB (2%)
Title : TimeScapes.2012.DOCU.2160p.BluRay.REMUX.HEVC.DTS-HD.MA.2.0
Language : English
Default : No
Forced : No

Audio #3
ID : 4
Format : DTS
Format/Info : Digital Theater Systems
Format profile : MA / Core
Codec ID : A_DTS
Duration : 48 min 21 s
Bit rate mode : Variable / Constant
Bit rate : 2 123 kb/s / 1 509 kb/s
Channel(s) : 6 channels
Channel positions : Front: L C R, Side: L R, LFE
Sampling rate : 48.0 kHz
Frame rate : 93.750 FPS (512 SPF)
Bit depth : 16 bits
Compression mode : Lossless / Lossy
Stream size : 734 MiB (3%)
Title : TimeScapes.2012.DOCU.2160p.BluRay.REMUX.HEVC.DTS-HD.MA.2.0
Language : German
Default : No
Forced : No

Menu
00:00:00.000 : en:Chapter 1
00:05:11.352 : en:Chapter 2
00:10:22.913 : en:Chapter 3
00:16:19.728 : en:Chapter 4
00:21:04.471 : en:Chapter 5
00:30:27.533 : en:Chapter 6
00:35:40.513 : en:Chapter 7
00:40:37.852 : en:Chapter 8
скачать dle 12.0

File size: 21.76 GB


download blu-ray movies

Screenshots do not display real color rendering. Since HDR is not supported by browsers.


Watch trailer of the movie TimeScapes 4K (2012) Ultra HD 2160p REMUX
Add comments
Add your comment:
Your Name:
Your E-Mail:
  • bowtiesmilelaughingblushsmileyrelaxedsmirk
    heart_eyeskissing_heartkissing_closed_eyesflushedrelievedsatisfiedgrin
    winkstuck_out_tongue_winking_eyestuck_out_tongue_closed_eyesgrinningkissingstuck_out_tonguesleeping
    worriedfrowninganguishedopen_mouthgrimacingconfusedhushed
    expressionlessunamusedsweat_smilesweatdisappointed_relievedwearypensive
    disappointedconfoundedfearfulcold_sweatperseverecrysob
    joyastonishedscreamtired_faceangryragetriumph
    sleepyyummasksunglassesdizzy_faceimpsmiling_imp
    neutral_faceno_mouthinnocent
The code:
reload, if the code cannot be seen
Enter: