Howards End 4K (1992) Ultra HD 2160p REMUX

Howards End 4K (1992) Ultra HD 2160p REMUX
BDRemux 4K 2160P
Сountry: UK | Japan | USA
Genre: Drama
Language: English | German
Cast: Vanessa Redgrave, Helena Bonham Carter, Joseph Bennett, Emma Thompson, Prunella Scales, Adrian Ross Magenty, Jo Kendall, Anthony Hopkins, James Wilby, Jemma Redgrave, Ian Latimer, Samuel West, Mary Nash, Siegbert Prawer, Susie Lindeman...
-1
Rating
1

Margaret Schlegel is a flighty yet compassionate middle-class intellectual whose friendship with the dying wife of rich capitalist Henry Wilcox commences an intricately woven tale of money, love, and death that encompasses the country’s highest and lowest social echelons.

Howards End 4K (1992) Ultra HD 2160p REMUX Review
Encounter of three social classes of England at the beginning of the 20th century : the Victorian capitalists (the Wilcoxes) considering themselves as aristocrats, whose only god is money ; the enlightened bourgeois (the Schlegels), humanistic and philanthropic ; and the workers (the Basts), fighting to survive. The Schlegel sisters' humanism will be torn apart as they try both to softly knock down the Wilcox's prejudices and to help the Basts.

This is one of the finest films ever made, a testament to director James Ivory's unique sensitivity and genius. Of course, he started with a great novel by E. M. Forster, which always helps. But the screenplay by Ruth Prawer Jhabvlala does it complete justice, as was always the case with her magnificent writing for the screen. I recently watched this again for the first time in years. My seeing performances of this story began with a London stage production long ago, where Gemma Jones was so brilliant in the role of the younger Schlegel sister played here by Helena Bonham Carter. This tale is so powerful and dramatic that it lends itself to novel, stage, and screen with equal facility. The story is bitingly, savagely critical of the hypocrisy and social injustice of England a century ago. This film's luminous centre is given it from the very first opening travelling shot, where Vanessa Redgrave is seen and followed as she roams in the twilight through her beloved garden at her house Howard's End, which she had inherited from her brother who died, and where she was born. Ivory avoids needless lighting, and we can barely make her out sometimes as she looks lovingly upon the flowers, the tree branches, and smells the redolent air, taking in the scents of early night. She stands outside looking into the drawing room through the open bow window, and is absorbing the adored atmosphere of the home she loves above all else in the world. Although she dies rather early in the film, Redgrave, as Ruth Wilcox, is radiant, mystical, supernatural in her mysterious performance, and she gives that inescapable tone of an underlying reality, of a concealed fate, beneath the surface of events, which make this film so utterly magical. All of the major performances are sensationally brilliant. Anthony Hopkins is so convincing as a crisp, matter-of-fact man of business who is in denial of all deeper feelings. Emma Thompson is at her most glorious as the infectiously irreverent and joyously alive older sister to the more serious Helena Bonham Carter. But in their scenes together they convey the carefree and heedless sisterliness of a joyful and playful household, they chatter together like magpies who have known each other since birth, they play, they joke, they romp, and truly they have captured on film exactly what such people could be like in those days. I knew groups of sisters like that as late as the 1960s and even the 1970s, before that terminal social decay set in, which destroyed all real joy in people's home lives and eradicated all such spontaneity and innocent fun in the drawing room. Every scene of this film reeks of authenticity and screams out: 'I'm really happening!' Or at least: 'Such things happened once!' Every scene of this film is composed so perfectly, the costumes are so exquisite, the art direction and production design are sensational beyond even the words of E. M. Forster to describe. The music is chosen so sensitively. Every breath is choreographed in this sumptuous spectacle of a lost world. As you watch this, you keep thinking: there is only one James Ivory. And he truly is an ivory in the lapidary sense, for he and everything he touches are carved by the gods.

Video
ID : 1
Format : HEVC
Format/Info : High Efficiency Video Coding
Format profile : Main 10@L5.1@High
Codec ID : V_MPEGH/ISO/HEVC
Duration : 2 h 22 min
Bit rate : 61.0 Mb/s
Width : 3 840 pixels
Height : 2 160 pixels
Display aspect ratio : 16:9
Frame rate mode : Constant
Frame rate : 24.000 FPS
Standard : Component
Color space : YUV
Chroma subsampling : 4:2:0 (Type 2)
Bit depth : 10 bits
Bits/(Pixel*Frame) : 0.306
Stream size : 60.8 GiB (89%)
Title : Howards.End.1992.2160p.BluRay.REMUX.HEVC.DTS-HD.MA.5.1
Default : Yes
Forced : No
Color range : Limited
Color primaries : BT.2020
Transfer characteristics : PQ
Matrix coefficients : BT.2020 non-constant
Mastering display color primaries : Display P3
Mastering display luminance : min: 0.0050 cd/m2, max: 1000 cd/m2

Audio #1
ID : 2
Format : DTS
Format/Info : Digital Theater Systems
Format profile : MA / Core
Codec ID : A_DTS
Duration : 2 h 22 min
Bit rate mode : Variable / Constant
Bit rate : 2 976 kb/s / 1 509 kb/s
Channel(s) : 6 channels
Channel positions : Front: L C R, Side: L R, LFE
Sampling rate : 48.0 kHz
Frame rate : 93.750 FPS (512 SPF)
Bit depth : 24 bits
Compression mode : Lossless / Lossy
Stream size : 2.96 GiB (4%)
Title : Howards.End.1992.2160p.BluRay.REMUX.HEVC.DTS-HD.MA.5.1
Language : English
Default : Yes
Forced : No

Audio #2
ID : 3
Format : AC-3
Format/Info : Audio Coding 3
Codec ID : A_AC3
Duration : 2 h 22 min
Bit rate mode : Constant
Bit rate : 224 kb/s
Channel(s) : 2 channels
Channel positions : Front: L R
Sampling rate : 48.0 kHz
Frame rate : 31.250 FPS (1536 SPF)
Bit depth : 16 bits
Compression mode : Lossy
Stream size : 229 MiB (0%)
Title : Howards.End.1992.2160p.BluRay.REMUX.HEVC.DTS-HD.MA.5.1
Language : English
Service kind : Complete Main
Default : No
Forced : No

Audio #3
ID : 4
Format : DTS
Format/Info : Digital Theater Systems
Format profile : MA / Core
Codec ID : A_DTS
Duration : 2 h 22 min
Bit rate mode : Variable / Constant
Bit rate : 3 944 kb/s / 1 509 kb/s
Channel(s) : 6 channels
Channel positions : Front: L C R, Side: L R, LFE
Sampling rate : 48.0 kHz
Frame rate : 93.750 FPS (512 SPF)
Bit depth : 24 bits
Compression mode : Lossless / Lossy
Stream size : 3.93 GiB (6%)
Title : Howards.End.1992.2160p.BluRay.REMUX.HEVC.DTS-HD.MA.5.1
Language : German
Default : No
Forced : No

Audio #4
ID : 5
Format : AC-3
Format/Info : Audio Coding 3
Codec ID : A_AC3
Duration : 2 h 22 min
Bit rate mode : Constant
Bit rate : 224 kb/s
Channel(s) : 2 channels
Channel positions : Front: L R
Sampling rate : 48.0 kHz
Frame rate : 31.250 FPS (1536 SPF)
Bit depth : 16 bits
Compression mode : Lossy
Stream size : 229 MiB (0%)
Title : Howards.End.1992.2160p.BluRay.REMUX.HEVC.DTS-HD.MA.5.1
Language : German
Service kind : Complete Main
Default : No
Forced : No

Text
ID : 6
Format : PGS
Muxing mode : zlib
Codec ID : S_HDMV/PGS
Codec ID/Info : Picture based subtitle format used on BDs/HD-DVDs
Duration : 2 h 21 min
Bit rate : 46.9 kb/s
Count of elements : 3538
Stream size : 47.5 MiB (0%)
Title : German-PGS
Language : German
Default : No
Forced : No

Menu
00:00:00.000 : en:Chapter 1
00:12:02.250 : en:Chapter 2
00:26:17.458 : en:Chapter 3
00:34:49.000 : en:Chapter 4
00:45:58.083 : en:Chapter 5
00:57:51.250 : en:Chapter 6
01:09:34.000 : en:Chapter 7
01:23:04.750 : en:Chapter 8
01:32:52.875 : en:Chapter 9
01:46:50.958 : en:Chapter 10
01:55:54.041 : en:Chapter 11
02:10:49.708 : en:Chapter 12

File size: 68.13 GB


download blu-ray movies

Screenshots do not display real color rendering. Since HDR is not supported by browsers.
Howards End 4K (1992) Ultra HD 2160p REMUX

Watch trailer of the movie Howards End 4K (1992) Ultra HD 2160p REMUX
Add comments
Add your comment:
Your Name:
Your E-Mail:
  • bowtiesmilelaughingblushsmileyrelaxedsmirk
    heart_eyeskissing_heartkissing_closed_eyesflushedrelievedsatisfiedgrin
    winkstuck_out_tongue_winking_eyestuck_out_tongue_closed_eyesgrinningkissingstuck_out_tonguesleeping
    worriedfrowninganguishedopen_mouthgrimacingconfusedhushed
    expressionlessunamusedsweat_smilesweatdisappointed_relievedwearypensive
    disappointedconfoundedfearfulcold_sweatperseverecrysob
    joyastonishedscreamtired_faceangryragetriumph
    sleepyyummasksunglassesdizzy_faceimpsmiling_imp
    neutral_faceno_mouthinnocent
The code:
reload, if the code cannot be seen
Enter: