USA A West Coast Journey 4K (2014) DOCU Ultra HD 2160p REMUX

USA A West Coast Journey 4K (2014) DOCU Ultra HD 2160p REMUX
BDRemux 4K 2160P
–°ountry: USA
Genre: Documentary
Language: English
Cast: -
0
Rating
0

No synopsis for USA - A West Coast Journey 4K.

USA A West Coast Journey 4K (2014) DOCU Ultra HD 2160p REMUX Review
Film USA - A West Coast Journey streaming vf,USA - A West Coast Journey download in 4K Ultra HD 2160p, regarder USA - A West Coast Journey gratuitement, USA - A West Coast Journey download 4K, USA - A West Coast Journey filmze 4k, USA - A West Coast Journey Ultra HD movie, USA - A West Coast Journey download now, USA - A West Coast Journey film entier, DownLoad USA - A West Coast Journey 4K Ultra HD, USA - A West Coast Journey FULL movie 4K UHD, USA - A West Coast Journey film download in 4k.

Video
ID : 1
Format : HEVC
Format/Info : High Efficiency Video Coding
Format profile : Main 10@L5.1@High
Codec ID : V_MPEGH/ISO/HEVC
Duration : 1 h 10 min
Bit rate : 59.8 Mb/s
Width : 3 840 pixels
Height : 2 160 pixels
Display aspect ratio : 16:9
Frame rate mode : Constant
Frame rate : 24.000 FPS
Standard : Component
Color space : YUV
Chroma subsampling : 4:2:0
Bit depth : 10 bits
Bits/(Pixel*Frame) : 0.300
Stream size : 29.6 GiB (89%)
Title : USA.A.West.Coast.Journey.2014.DOCU.2160p.BluRay.REMUX.HEVC.DTS-HD.MA.5.1
Default : Yes
Forced : No
Color range : Limited
Color primaries : BT.709
Transfer characteristics : BT.709
Matrix coefficients : BT.709

Audio #1
ID : 2
Format : DTS
Format/Info : Digital Theater Systems
Format profile : MA / Core
Codec ID : A_DTS
Duration : 1 h 10 min
Bit rate mode : Variable / Constant
Bit rate : 2 365 kb/s / 1 509 kb/s
Channel(s) : 6 channels
Channel positions : Front: L C R, Side: L R, LFE
Sampling rate : 48.0 kHz
Frame rate : 93.750 FPS (512 SPF)
Bit depth : 16 bits
Compression mode : Lossless / Lossy
Stream size : 1.17 GiB (4%)
Title : USA.A.West.Coast.Journey.2014.DOCU.2160p.BluRay.REMUX.HEVC.DTS-HD.MA.5.1
Language : English
Default : Yes
Forced : No

Audio #2
ID : 3
Format : DTS
Format/Info : Digital Theater Systems
Format profile : MA / Core
Codec ID : A_DTS
Duration : 1 h 10 min
Bit rate mode : Variable / Constant
Bit rate : 2 626 kb/s / 1 509 kb/s
Channel(s) : 6 channels
Channel positions : Front: L C R, Side: L R, LFE
Sampling rate : 48.0 kHz
Frame rate : 93.750 FPS (512 SPF)
Bit depth : 16 bits
Compression mode : Lossless / Lossy
Stream size : 1.30 GiB (4%)
Title : USA.A.West.Coast.Journey.2014.DOCU.2160p.BluRay.REMUX.HEVC.DTS-HD.MA.5.1
Language : English
Default : No
Forced : No

Audio #3
ID : 4
Format : DTS
Format/Info : Digital Theater Systems
Format profile : MA / Core
Codec ID : A_DTS
Duration : 1 h 10 min
Bit rate mode : Variable / Constant
Bit rate : 2 527 kb/s / 1 509 kb/s
Channel(s) : 6 channels
Channel positions : Front: L C R, Side: L R, LFE
Sampling rate : 48.0 kHz
Frame rate : 93.750 FPS (512 SPF)
Bit depth : 16 bits
Compression mode : Lossless / Lossy
Stream size : 1.25 GiB (4%)
Title : USA.A.West.Coast.Journey.2014.DOCU.2160p.BluRay.REMUX.HEVC.DTS-HD.MA.5.1
Language : German
Default : No
Forced : No

Text
ID : 5
Format : PGS
Muxing mode : zlib
Codec ID : S_HDMV/PGS
Codec ID/Info : Picture based subtitle format used on BDs/HD-DVDs
Duration : 1 h 2 min
Bit rate : 3 610 b/s
Count of elements : 198
Stream size : 1.62 MiB (0%)
Title : German-PGS
Language : German
Default : No
Forced : No

Menu
00:00:00.000 : en:Chapter 1
00:00:06.000 : en:Chapter 2
00:03:00.000 : en:Chapter 3
00:05:57.000 : en:Chapter 4
00:12:10.708 : en:Chapter 5
00:13:16.583 : en:Chapter 6
00:14:52.458 : en:Chapter 7
00:16:49.125 : en:Chapter 8
00:18:04.458 : en:Chapter 9
00:20:46.625 : en:Chapter 10
00:23:36.416 : en:Chapter 11
00:26:12.000 : en:Chapter 12
00:27:30.000 : en:Chapter 13
00:28:34.666 : en:Chapter 14
00:30:03.000 : en:Chapter 15
00:32:29.000 : en:Chapter 16
00:35:15.416 : en:Chapter 17
00:38:36.250 : en:Chapter 18
00:39:22.833 : en:Chapter 19
00:40:51.083 : en:Chapter 20
00:43:11.833 : en:Chapter 21
00:45:58.083 : en:Chapter 22
00:48:38.875 : en:Chapter 23
00:49:48.000 : en:Chapter 24
00:51:32.000 : en:Chapter 25
00:55:10.000 : en:Chapter 26
00:57:25.416 : en:Chapter 27
00:59:56.916 : en:Chapter 28
01:02:21.500 : en:Chapter 29
01:05:37.625 : en:Chapter 30
01:09:40.000 : en:Chapter 31

File size: 33.30 GB


download blu-ray movies

Screenshots do not display real color rendering. Since HDR is not supported by browsers.


Watch trailer of the movie USA A West Coast Journey 4K (2014) DOCU Ultra HD 2160p REMUX
Add comments
Add your comment:
Your Name:
Your E-Mail:
  • bowtiesmilelaughingblushsmileyrelaxedsmirk
    heart_eyeskissing_heartkissing_closed_eyesflushedrelievedsatisfiedgrin
    winkstuck_out_tongue_winking_eyestuck_out_tongue_closed_eyesgrinningkissingstuck_out_tonguesleeping
    worriedfrowninganguishedopen_mouthgrimacingconfusedhushed
    expressionlessunamusedsweat_smilesweatdisappointed_relievedwearypensive
    disappointedconfoundedfearfulcold_sweatperseverecrysob
    joyastonishedscreamtired_faceangryragetriumph
    sleepyyummasksunglassesdizzy_faceimpsmiling_imp
    neutral_faceno_mouthinnocent
The code:
reload, if the code cannot be seen
Enter: