The Phantom of the Opera 4K (2004) Ultra HD 2160p REMUX

The Phantom of the Opera 4K (2004) Ultra HD 2160p REMUX
BDRemux 4K 2160P
Сountry: UK | USA
Genre: Drama
Language: English | Italian
Cast: Gerard Butler, Emmy Rossum, Patrick Wilson, Miranda Richardson, Minnie Driver, Ciarn Hinds, Simon Callow, Victor McGuire, Jennifer Ellison, Murray Melvin, Kevin McNally, James Fleet, Imogen Bain, Miles Western, Judith Paris...
0
Rating
0

A young soprano becomes the obsession of a disfigured musical genius who lives beneath the Paris Opéra House. He kidnaps the soprano and forces the owners of the play to keep her as the lead role of the play.

The Phantom of the Opera 4K (2004) Ultra HD 2160p REMUX Review
Musical Drama based on Andrew Lloyd Webber's celebrated musical phenomenon. The Phantom of the Opera tells the story of a disfigured musical genius who haunts the catacombs beneath the Paris Opera, waging a reign of terror over its occupants. When he falls fatally in love with the lovely Christine, the Phantom devotes himself to creating a new star for the Opera, exerting a strange sense of control over the young soprano as he nurtures her extraordinary talents.

I was able to view this at a special screening and was very impressed. It is a visually stunning movie - the costuming and sets are as extravagant and lavish as the music. Gerard Butler gives a particularly anguishing and sympathetic performance as The Phantom. Emmy Rossum is beautiful portraying Christine and her transformation from a young innocent to a woman who is aware of herself, her sexuality, and the world of love. Patrick Wilson is a particularly dashing, heroic and protective Raoul and Minnie Driver provides hilarious comic relief as Carlotta. I particularly enjoyed the film's ability to delve deeper into the lives of characters. It provided depth and context and layers to all of the characters that the stage production cannot do. The entire cast was magnificent and I will be hearing the "music of the night" in my head for the next several days. I would definitely recommend it and can't wait to see it again.

Video
ID : 1
Format : HEVC
Format/Info : High Efficiency Video Coding
Format profile : Main 10@L5.1@High
Codec ID : V_MPEGH/ISO/HEVC
Duration : 2 h 21 min
Bit rate : 33.3 Mb/s
Width : 3 840 pixels
Height : 2 160 pixels
Display aspect ratio : 16:9
Frame rate mode : Constant
Frame rate : 23.976 (24000/1001) FPS
Color space : YUV
Chroma subsampling : 4:2:0 (Type 2)
Bit depth : 10 bits
Bits/(Pixel*Frame) : 0.168
Stream size : 32.8 GiB (62%)
Title : The.Phantom.Of.The.Opera.2004.2160p.BluRay.REMUX.HEVC.LPCM.5.1
Default : Yes
Forced : No
Color range : Limited
Color primaries : BT.2020
Transfer characteristics : PQ
Matrix coefficients : BT.2020 non-constant
Mastering display color primaries : BT.2020
Mastering display luminance : min: 0.0050 cd/m2, max: 1000 cd/m2

Audio #1
ID : 2
Format : PCM
Format settings : Little / Signed
Codec ID : A_PCM/INT/LIT
Duration : 2 h 21 min
Bit rate mode : Constant
Bit rate : 13.8 Mb/s
Channel(s) : 6 channels
Sampling rate : 96.0 kHz
Frame rate : 200.000 FPS (480 SPF)
Bit depth : 24 bits
Stream size : 13.6 GiB (26%)
Title : The.Phantom.Of.The.Opera.2004.2160p.BluRay.REMUX.HEVC.LPCM.5.1
Language : English
Default : Yes
Forced : No

Audio #2
ID : 3
Format : TrueHD
Codec ID : A_TRUEHD
Duration : 2 h 21 min
Bit rate mode : Variable
Bit rate : 4 660 kb/s
Maximum bit rate : 7 212 kb/s
Channel(s) : 6 channels
Channel positions : Front: L C R, Side: L R, LFE
Sampling rate : 96.0 kHz
Frame rate : 2 400.000 FPS (40 SPF)
Compression mode : Lossless
Stream size : 4.59 GiB (9%)
Title : The.Phantom.Of.The.Opera.2004.2160p.BluRay.REMUX.HEVC.LPCM.5.1
Language : English
Default : No
Forced : No

Audio #3
ID : 4
Format : AC-3
Format/Info : Audio Coding 3
Codec ID : A_AC3
Duration : 2 h 21 min
Bit rate mode : Constant
Bit rate : 640 kb/s
Channel(s) : 6 channels
Channel positions : Front: L C R, Side: L R, LFE
Sampling rate : 48.0 kHz
Frame rate : 31.250 FPS (1536 SPF)
Bit depth : 16 bits
Compression mode : Lossy
Stream size : 646 MiB (1%)
Title : The.Phantom.Of.The.Opera.2004.2160p.BluRay.REMUX.HEVC.LPCM.5.1
Language : English
Service kind : Complete Main
Default : No
Forced : No

Audio #4
ID : 5
Format : TrueHD
Codec ID : A_TRUEHD
Duration : 2 h 21 min
Bit rate mode : Variable
Bit rate : 765 kb/s
Maximum bit rate : 1 152 kb/s
Channel(s) : 2 channels
Channel positions : Front: C
Sampling rate : 48.0 kHz
Frame rate : 1 200.000 FPS (40 SPF)
Compression mode : Lossless
Stream size : 772 MiB (1%)
Title : The.Phantom.Of.The.Opera.2004.2160p.BluRay.REMUX.HEVC.LPCM.5.1
Language : Japanese
Default : No
Forced : No

Audio #5
ID : 6
Format : AC-3
Format/Info : Audio Coding 3
Codec ID : A_AC3
Duration : 2 h 21 min
Bit rate mode : Constant
Bit rate : 640 kb/s
Channel(s) : 2 channels
Channel positions : Front: L R
Sampling rate : 48.0 kHz
Frame rate : 31.250 FPS (1536 SPF)
Bit depth : 16 bits
Compression mode : Lossy
Stream size : 646 MiB (1%)
Title : The.Phantom.Of.The.Opera.2004.2160p.BluRay.REMUX.HEVC.LPCM.5.1-FGT
Language : Japanese
Service kind : Complete Main
Default : No
Forced : No

Text #1
ID : 7
Format : PGS
Muxing mode : zlib
Codec ID : S_HDMV/PGS
Codec ID/Info : Picture based subtitle format used on BDs/HD-DVDs
Duration : 2 h 13 min
Bit rate : 26.5 kb/s
Count of elements : 2632
Stream size : 25.4 MiB (0%)
Title : English-PGS
Language : English
Default : Yes
Forced : No

Text #2
ID : 8
Format : PGS
Muxing mode : zlib
Codec ID : S_HDMV/PGS
Codec ID/Info : Picture based subtitle format used on BDs/HD-DVDs
Duration : 2 h 14 min
Bit rate : 26.2 kb/s
Count of elements : 3089
Stream size : 25.2 MiB (0%)
Title : Japanese-PGS
Language : Japanese
Default : No
Forced : No

Text #3
ID : 9
Format : PGS
Muxing mode : zlib
Codec ID : S_HDMV/PGS
Codec ID/Info : Picture based subtitle format used on BDs/HD-DVDs
Duration : 2 h 14 min
Bit rate : 26.2 kb/s
Count of elements : 3089
Stream size : 25.3 MiB (0%)
Title : Japanese-PGS
Language : Japanese
Default : No
Forced : No

Text #4
ID : 10
Format : PGS
Muxing mode : zlib
Codec ID : S_HDMV/PGS
Codec ID/Info : Picture based subtitle format used on BDs/HD-DVDs
Duration : 2 h 14 min
Bit rate : 34.4 kb/s
Count of elements : 3089
Stream size : 33.1 MiB (0%)
Title : Japanese-PGS
Language : Japanese
Default : No
Forced : No

Text #5
ID : 11
Format : PGS
Muxing mode : zlib
Codec ID : S_HDMV/PGS
Codec ID/Info : Picture based subtitle format used on BDs/HD-DVDs
Duration : 2 h 14 min
Bit rate : 1 796 b/s
Count of elements : 390
Stream size : 1.73 MiB (0%)
Title : Japanese-FORCED-PGS
Language : Japanese
Default : No
Forced : No

Menu
00:00:00.000 : en:Chapter 1
00:04:46.244 : en:Chapter 2
00:07:32.743 : en:Chapter 3
00:13:56.585 : en:Chapter 4
00:17:29.673 : en:Chapter 5
00:22:21.423 : en:Chapter 6
00:26:00.600 : en:Chapter 7
00:28:35.380 : en:Chapter 8
00:30:59.274 : en:Chapter 9
00:34:33.321 : en:Chapter 10
00:41:09.008 : en:Chapter 11
00:43:46.915 : en:Chapter 12
00:47:35.477 : en:Chapter 13
00:55:02.674 : en:Chapter 14
00:58:29.923 : en:Chapter 15
01:03:05.448 : en:Chapter 16
01:05:50.196 : en:Chapter 17
01:08:45.579 : en:Chapter 18
01:14:22.374 : en:Chapter 19
01:16:43.015 : en:Chapter 20
01:26:03.658 : en:Chapter 21
01:30:18.037 : en:Chapter 22
01:33:49.040 : en:Chapter 23
01:37:56.704 : en:Chapter 24
01:41:42.137 : en:Chapter 25
01:45:46.840 : en:Chapter 26
01:48:57.697 : en:Chapter 27
01:54:29.571 : en:Chapter 28
01:57:04.183 : en:Chapter 29
02:01:53.597 : en:Chapter 30
02:07:38.609 : en:Chapter 31
02:11:45.147 : en:Chapter 32

File size: 53.25 GB


download blu-ray movies
You bought a premium. Contact the TakeFile support team, they will increase your traffic up to 512 gb every 48 hours.

Screenshots do not display real color rendering. Since HDR is not supported by browsers.


Watch trailer of the movie The Phantom of the Opera 4K (2004) Ultra HD 2160p REMUX
Add comments
Add your comment:
Your Name:
Your E-Mail:
  • bowtiesmilelaughingblushsmileyrelaxedsmirk
    heart_eyeskissing_heartkissing_closed_eyesflushedrelievedsatisfiedgrin
    winkstuck_out_tongue_winking_eyestuck_out_tongue_closed_eyesgrinningkissingstuck_out_tonguesleeping
    worriedfrowninganguishedopen_mouthgrimacingconfusedhushed
    expressionlessunamusedsweat_smilesweatdisappointed_relievedwearypensive
    disappointedconfoundedfearfulcold_sweatperseverecrysob
    joyastonishedscreamtired_faceangryragetriumph
    sleepyyummasksunglassesdizzy_faceimpsmiling_imp
    neutral_faceno_mouthinnocent
The code:
reload, if the code cannot be seen
Enter: