Beta Test (2016) REMUX HD 1080

Beta Test (2016) REMUX HD 1080
BDRemux 1080P
–°ountry: USA
Genre: Thriller
Language: English
Cast: Manu Bennett, Larenz Tate, Linden Ashby, Kevon Stover, Brandy Kopp, Sara Coates, Yuji Okumoto, Edward Michae, Edi Zanidache, Bill Sorice, Stefan Hajek, Adrien Gamache, Mark Riccardi, Angela DiMarco, Angela Okumoto...
0
Rating
0

Blu-Ray HD 1080P Beta Test 2016. Champion gamer Max Troy discovers events in a new video game are being mirrored in the real world, and must join forces with the game's protagonist, Orson Creed, to unravel the conspiracy before the game's sinister plot overwhelms the city.

Storyline
While testing the latest first person shooter from global game developer, Sentinel, video game champion Max Troy discovers the events happening within the game are being reflected in the real world. He soon determines that the game's protagonist is real-life Orson Creed, an ex-Sentinel employee who is being remotely controlled by the corporation for reasons unknown. Beta Test HD 1080. As virtual and real worlds collide, Max and Creed must join forces to unravel the conspiracy before the game's sinister events escalate and overwhelm the city.

User Reviews
Some times a year you just end up with one of those C-class movies, and this time it was Beta Test. Though the plot was quit interesting (the obvious reason why I watched it; almost as from an Ernest Cline novel), the movie in total was awful. The acting was lousy (cheap pron stars?) and the director obviously had better things to do than being on the set; no drive, no mind twisting turns. Nothing but amateur fighting to keep the movie afloat. Beta Test download HD blu-ray remux.

Video

ID : 1
Format : AVC
Format/Info : Advanced Video Codec
Format profile : High@L4.1
Format settings : CABAC / 2 Ref Frames
Format settings, CABAC : Yes
Format settings, ReFrames : 2 frames
Format settings, GOP : M=1, N=5
Codec ID : V_MPEG4/ISO/AVC
Duration : 1 h 28 min
Bit rate mode : Variable
Bit rate : 23.1 Mb/s
Maximum bit rate : 35.2 Mb/s
Width : 1 920 pixels
Height : 1 080 pixels
Display aspect ratio : 16:9
Frame rate mode : Constant
Frame rate : 23.976 (24000/1001) FPS
Color space : YUV
Chroma subsampling : 4:2:0
Bit depth : 8 bits
Scan type : Progressive
Bits/(Pixel*Frame) : 0.466
Stream size : 14.2 GiB (96%)
Title : Beta.Test.2016.1080p.BluRay.REMUX.AVC.DD5.1-FGT
Language : English
Default : No
Forced : No

Audio

ID : 2
Format : AC-3
Format/Info : Audio Coding 3
Codec ID : A_AC3
Duration : 1 h 28 min
Bit rate mode : Constant
Bit rate : 384 kb/s
Channel(s) : 6 channels
Channel positions : Front: L C R, Side: L R, LFE
Sampling rate : 48.0 kHz
Frame rate : 31.250 FPS (1536 SPF)
Bit depth : 16 bits
Compression mode : Lossy
Stream size : 242 MiB (2%)
Title : Beta.Test.2016.1080p.BluRay.REMUX.AVC.DD5.1-FGT
Language : English
Service kind : Complete Main
Default : Yes
Forced : No

File size: 14.77 GB


download blu-ray movies
You bought a premium. Contact the TakeFile support team, they will increase your traffic up to 512 gb every 48 hours.

Screenshots do not display real color rendering. Since HDR is not supported by browsers.


Watch trailer of the movie Beta Test (2016) REMUX HD 1080
Add comments
Add your comment:
Your Name:
Your E-Mail:
  • bowtiesmilelaughingblushsmileyrelaxedsmirk
    heart_eyeskissing_heartkissing_closed_eyesflushedrelievedsatisfiedgrin
    winkstuck_out_tongue_winking_eyestuck_out_tongue_closed_eyesgrinningkissingstuck_out_tonguesleeping
    worriedfrowninganguishedopen_mouthgrimacingconfusedhushed
    expressionlessunamusedsweat_smilesweatdisappointed_relievedwearypensive
    disappointedconfoundedfearfulcold_sweatperseverecrysob
    joyastonishedscreamtired_faceangryragetriumph
    sleepyyummasksunglassesdizzy_faceimpsmiling_imp
    neutral_faceno_mouthinnocent
The code:
reload, if the code cannot be seen
Enter: